<?xml version="1.0" standalone="no"?>
<!DOCTYPE svg PUBLIC "-//W3C//DTD SVG 1.1//EN" "http://www.w3.org/Graphics/SVG/1.1/DTD/svg11.dtd">
<svg xmlns="http://www.w3.org/2000/svg">
<metadata>Copyright (C) 2017 by original authors @ fontello.com</metadata>
<defs>
<font id="fontello" horiz-adv-x="1000" >
<font-face font-family="fontello" font-weight="400" font-stretch="normal" units-per-em="1000" ascent="850" descent="-150" />
<missing-glyph horiz-adv-x="1000" />
<glyph glyph-name="left152" unicode="&#xe800;" d="M500 850c-276 0-500-224-500-500s224-500 500-500c276 0 500 224 500 500s-224 500-500 500z m0-938c-242 0-437 196-437 438 0 242 195 438 437 438s438-196 438-438c0-242-196-438-438-438z m142 705c-12 12-32 12-44 0l-240-239c-7-8-9-18-8-28-1-10 1-20 8-27l240-240c12-12 32-12 44 0 12 13 12 32 0 44l-223 223 223 223c12 12 12 32 0 44z" horiz-adv-x="1000" />

<glyph glyph-name="right148" unicode="&#xe801;" d="M642 378l-239 239c-13 12-32 12-45 0-12-12-12-32 0-44l223-223-223-222c-12-13-12-32 0-45 13-12 32-12 45 0l239 240c7 7 10 17 8 27 2 10-1 20-8 28z m-142 472c-276 0-500-224-500-500 0-276 224-500 500-500 276 0 500 224 500 500 0 276-224 500-500 500z m0-938c-242 0-437 196-437 438 0 242 195 438 437 438 242 0 438-196 438-438 0-242-196-438-438-438z" horiz-adv-x="1000" />

<glyph glyph-name="email108" unicode="&#xe802;" d="M963 703h-926c-20 0-37-17-37-37v-632c0-20 17-37 37-37h926c20 0 37 17 37 37v632c0 20-17 37-37 37z m-889-107l252-172-252-290v462l0 0z m426-201l-343 234h686l-343-234z m-112-13l91-63c6-4 14-6 21-6 7 0 15 2 21 6l91 63 270-311h-764l270 311z m286 42l252 172v-462l-252 290z" horiz-adv-x="1000" />

<glyph glyph-name="location42" unicode="&#xe803;" d="M500 850c-180 0-326-146-326-326 0-165 262-605 292-655 7-12 20-19 34-19s27 7 34 19c30 50 293 490 293 655 0 180-147 326-327 326z m0-883c-91 158-247 450-247 557 0 136 111 247 247 247 136 0 247-111 247-247 0-106-156-399-247-557z m0 745c-104 0-188-85-188-188 0-104 84-188 188-188 104 0 188 84 188 188 0 103-84 188-188 188z m0-297c-60 0-109 49-109 109 0 60 49 108 109 108 60 0 109-48 109-108 0-60-49-109-109-109z" horiz-adv-x="1000" />

<glyph glyph-name="round68" unicode="&#xe804;" d="M500 850c-276 0-500-224-500-500s224-500 500-500 500 224 500 500-224 500-500 500z m0-934c-239 0-434 195-434 434 0 240 194 434 434 434 240 0 434-194 434-434 0-239-194-434-434-434z m181 598l-258-258-104 104c-13 13-34 13-46 0-13-13-13-33 0-46l127-128c6-6 15-9 23-9s17 3 23 9c0 0 0 0 1 0l280 281c13 13 13 34 0 47-12 13-33 13-46 0z" horiz-adv-x="1000" />

<glyph glyph-name="stick-man-2" unicode="&#xe805;" d="M790 842c-70 0-126-57-126-127s56-126 126-126 126 57 126 126-56 127-126 127z m0-203c-42 0-76 34-76 76s34 77 76 77 76-35 76-77-34-76-76-76z m-290-50c70 0 126 57 126 126s-56 127-126 127-126-57-126-127c0-69 56-126 126-126z m0 203c42 0 76-35 76-77s-34-76-76-76c-42 0-76 34-76 76 0 42 34 77 76 77z m375-228h-108c-13 0-25-12-25-26s12-25 25-25h108c41 0 75-33 75-75v-160c0-31-20-59-49-70-10-4-17-13-17-24v-226c0-27-22-49-49-49h-114c-14 0-25-12-25-25s11-26 25-26h114c55 0 99 45 99 100v211c40 21 66 64 66 110v160c0 69-56 125-125 125z m-432-705h114c55 0 100 45 100 100v210c40 21 65 64 65 110v160c0 69-56 125-125 125h-194c-69 0-125-56-125-125v-160c0-46 25-89 65-110v-210c1-55 45-100 100-100z m-115 420v160c0 41 34 75 75 75h194c42 0 75-34 75-75v-160c0-32-19-60-49-71-10-3-16-13-16-23v-226c0-28-22-50-50-50h-113c-28 0-50 22-50 50v226c0 10-6 20-16 23-30 11-50 39-50 71z m8 436c0 70-56 127-126 127s-126-57-126-127 56-126 126-126c69 0 126 57 126 126z m-202 0c0 42 34 77 76 77s76-35 76-77-34-76-76-76c-42 0-76 34-76 76z m31-856h114c14 0 25 11 25 25s-11 25-25 25h-114c-27 0-49 23-49 50v226c0 10-7 20-16 23-30 11-50 39-50 71v160c0 41 34 75 75 75h107c14 0 26 11 26 25s-12 25-26 25h-107c-69 0-125-56-125-125v-160c0-46 26-89 66-110v-210c0-55 45-100 99-100z" horiz-adv-x="1000" />

<glyph glyph-name="quotation3" unicode="&#xe806;" d="M500 850c-276 0-500-224-500-500 0-276 224-500 500-500 276 0 500 224 500 500 0 276-224 500-500 500z m0-939c-242 0-439 197-439 439 0 242 197 439 439 439 242 0 439-197 439-439 0-242-197-439-439-439z m-152 637c-68 0-124-55-124-124 0-42 21-79 54-102l-19-62c-13-44 13-91 57-105 8-2 16-3 24-3 0 0 0 0 0 0 37 0 71 25 81 60l48 159c9 27 9 58 9 59 0 66-57 118-130 118z m62-158l-47-160c-4-12-17-20-29-16-13 4-20 17-16 29l25 85c5 15-3 32-18 37-24 10-40 33-40 59 0 35 29 63 63 63 34 0 69-21 69-57 0-4-1-25-7-40z m236 158c-68 0-124-55-124-124 0-42 21-79 54-102l-18-62c-14-44 12-91 56-105 8-2 16-3 24-3h1c37 0 70 25 80 60l48 159c9 27 9 58 9 59 0 66-57 118-130 118z m63-158l-48-160c-4-12-17-20-29-16-12 4-20 17-16 29l26 85c4 15-4 32-19 37-24 10-40 33-40 59 0 35 29 63 63 63 34 0 69-21 69-57 0-4-1-25-6-40z" horiz-adv-x="1000" />

<glyph glyph-name="dust" unicode="&#xe807;" d="M999 495l-2 32-208-13v19l211 26-4 32-203-25 195 75-12 30-178-69 161 122-19 25-139-104 98 147-27 18-100-150 48 169-31 8-48-171v183h-33v-183l-49 171-31-8 49-169-100 150-27-18 98-147-139 104-20-25 162-122-178 69-12-30 195-75-203 25-4-32 211-26v-19l-208 13-2-32 210-13v-19h-209v-32h209v-17h-209v-32h209v-16h-209v-32h209v-19l-210-13 2-32 208 13v-15c-53-3-139-10-214-31l9-31c70 20 154 27 205 30v-14c-52-2-133-15-188-70l22-23c47 47 119 59 166 61v-275c0-35 29-64 64-64s65 29 65 64v274h209v32h-209v16h209v33h-209v16h209v32h-209v16h209v32h-209v16h209v32h-209v17h209v32h-209v19l210 13z m-242 17l-18-1 3-32 15 1v-17h0-16v-32h16v-17h-16v-32h16v-16h-16v-32h16v-16h-16v-32h16v-16h-16v-33h16v-16h-16v-32h16v-274c0-17-15-32-33-32-17 0-32 15-32 32v275c9 0 14-1 15-1l3 32c-1 0-8 1-18 1v15c10 0 16 0 16 0v33c-1 0-7 0-16-1v16l17 1-2 32-15-1v17h16v32h-16v16h16v32h-16v17h16v32h-16v17l15-1 2 32-17 1v17l14-2 4 32-18 2c1 11 7 21 16 26v-12h33v12c9-5 15-15 15-26l-17-2 4-32 14 2v-17z m-757-645v-16h32v16c0 195 159 354 354 354v32c-213 0-386-173-386-386z m435 81h32c0 71 58 128 129 128v33c-89 0-161-73-161-161z m-65 595v32c-80 0-145 65-145 145h-32c0-97 80-177 177-177z m0-64v32c-177 0-322 144-322 322v16h-32v-16c0-195 159-354 354-354z m-289-65c0-44 36-80 80-80 44 0 81 36 81 80 0 45-37 81-81 81-44 0-80-36-80-81z m128 0c0-26-21-48-48-48-27 0-48 22-48 48s21 49 48 49c27 0 48-22 48-49z m97 322c31 0 56 26 56 57s-25 56-56 56c-31 0-56-25-56-56s25-57 56-57z m0 81c13 0 24-11 24-24 0-14-11-24-24-24-13 0-24 10-24 24 0 13 11 24 24 24z m-97-805c-35 0-64-29-64-64s29-65 64-65 65 29 65 65-29 64-65 64z m0-97c-17 0-32 15-32 33 0 17 15 32 32 32 18 0 33-15 33-32 0-18-15-33-33-33z" horiz-adv-x="1000" />

<glyph glyph-name="dustpan" unicode="&#xe808;" d="M564 398h-143l31 369c0 45-36 81-81 81-44 0-80-36-80-82l31-368h-143c-63 0-122-50-129-110l-50-436h742l-50 436c-6 60-65 110-128 110z m-193 418c27 0 48-22 48-47l-30-371h-35l-31 369c0 27 22 49 48 49z m-335-932l46 400c5 43 51 82 97 82h385c46 0 92-39 96-82l46-400h-670z m512 450h-353c-46 0-75-29-80-78l-49-337 32-5 48 338c5 45 30 50 49 50h353c18 0 43-5 48-51l48-337 32 5-48 336c-5 50-35 79-80 79z m29 514l35-226v-47c0-27 22-48 48-48h81l-17-418c0-41 24-64 65-64 40 0 64 23 64 65l-16 417h80c27 0 48 21 48 48v47l35 226h-423z m212-771c-23 0-32 9-32 32l16 418h31l17-418c0-23-9-32-32-32z m144 498c0-9-7-16-16-16h-257c-9 0-16 7-16 16v32h289l0-32z m2 64h-162v112h-32v-112h-99l-27 177h284l-14-143 32-3 15 146h31l-28-177z" horiz-adv-x="1000" />

<glyph glyph-name="garbage" unicode="&#xe809;" d="M454 115c4-6 7-20 2-30-2-2-5-9-20-9h-74l20 21-22 23-59-59 57-76 26 20-29 39h81c29 0 43 16 48 26 11 21 7 48-3 63l-27-18z m-151 106h-93v-32h47l-43-54c-14-14-18-40-10-59 9-21 28-32 54-32h16v32h-16c-12 0-21 4-24 12-4 9-1 21 3 25l46 56 8-33 31 8-19 77z m147-31l-33 56-3 4c-7 12-22 36-59 36-38 0-52-24-60-36l-2-4 27-18c1 2 2 3 3 5 6 10 12 20 32 20s25-10 32-20c1-2 2-3 2-4l34-56h-52v-33h91l36 74-29 14-19-38z m357 422c57 29 96 89 96 157 0 36-29 65-64 65-18 0-35-8-46-19-15 21-39 35-67 35-28 0-52-14-67-35-12 11-28 19-46 19-36 0-65-29-65-65 0-68 40-128 97-157-38-12-72-31-101-57-36 27-77 47-121 58 55 30 93 89 93 156 0 36-29 65-64 65-18 0-35-8-46-19-15 21-39 35-67 35-28 0-53-14-67-35-12 11-28 19-46 19-36 0-65-29-65-65 0-67 38-126 94-156-146-37-255-170-255-327v-210c0-125 101-226 226-226h226c90 0 167 53 203 129h200c80 0 145 65 145 145v226c0 123-81 227-193 262z m-226 157c0 18 14 33 32 33s32-15 32-33h32c0 27 22 49 49 49 27 0 48-22 48-49h33c0 18 14 33 32 33s32-15 32-33c0-80-65-145-145-145s-145 65-145 145z m68-190c-15-21-27-52-37-95-13 18-27 35-43 50 23 20 51 35 80 45z m-455 190c0 18 14 33 32 33s32-15 32-33h32c0 27 22 49 49 49 26 0 48-22 48-49h32c0 18 15 33 33 33s32-15 32-33c0-80-65-145-145-145s-145 65-145 145z m451-693c0-107-87-194-193-194h-226c-107 0-194 87-194 194v210c0 139 94 257 222 294-46-53-77-150-77-262h33c0 148 59 274 129 274s129-126 129-274h32c0 112-30 209-77 262 128-37 222-155 222-294v-210z m323 48h0c0-62-51-113-113-113h-187c6 21 9 42 9 65v210c0 57-14 111-39 159 8 57 31 147 88 147 60 0 97-105 97-274h32c0 123-18 212-51 261 95-32 164-123 164-229v-226z" horiz-adv-x="1000" />

<glyph glyph-name="gloves" unicode="&#xe80a;" d="M936 673c-12 0-23-4-33-9v73c0 36-29 65-64 65-12 0-24-4-33-10-4 33-31 58-64 58-36 0-65-29-65-64v-9c-9 5-20 9-32 9-3 0-5-1-8-1-11 19-32 33-56 33-14 0-26-4-36-11-9 25-33 43-61 43-36 0-65-29-65-64v-9c-9 5-20 9-32 9-35 0-64-29-64-65v-32h-162v-32h162v-90c-10 5-21 9-33 9-35 0-64-29-64-65h-226v-32h226v-129h-97v-32h97v-49c0-83 17-123 36-165 6-14 12-28 18-44h-280v-33h290c10-37 17-86 17-161v-16h258 64 274v16c0 133 23 170 46 210 25 41 51 84 51 226v306c0 36-29 65-64 65z m-597-791c-2 133-26 187-48 235-17 41-33 75-33 152v242c0 18 15 33 32 33s33-15 33-33v-177h32v387c0 18 14 32 32 32s32-14 32-32v-290h33v355c0 17 14 32 32 32s32-15 32-32v-33-80-65h32v65 80c0 18 15 33 33 33 10 0 20-6 26-14-16-11-26-30-26-51v-154c-10 5-21 9-33 9-35 0-64-29-64-65v-242c0-83 17-123 36-165 21-47 43-96 44-222h-225z m629 420c0-133-23-170-46-210-24-40-49-81-51-210h-242-32c-2 133-26 187-48 235-17 41-33 75-33 152v242c0 18 15 33 32 33s33-15 33-33v-177h32v387c0 18 14 32 32 32s32-14 32-32v-290h33v355c0 17 14 32 32 32s32-15 32-32v-355h32v306c0 18 15 32 33 32s32-14 32-32v-306h32v177c0 18 15 32 33 32 17 0 32-14 32-32v-306z" horiz-adv-x="1000" />

<glyph glyph-name="house" unicode="&#xe80b;" d="M500 850l-182-115c-26 17-43 46-43 80h-32c0-53-44-97-97-97v-32c23 0 43-8 60-20l-204-132v-199l96 62v-129c0-44-36-80-80-80v-32c44 0 80-36 80-81v-225h129 257 418v547l97-62v199l-499 316z m-241-97c12-21 29-39 50-51-21-11-38-29-50-50-7 12-15 22-25 31l0 1 0 0c-8 7-16 13-26 18 22 12 39 30 51 51z m-183-581c15 9 29 22 38 38 10-16 23-29 39-38-16-10-29-23-39-39-9 16-23 29-38 39z m376-290h-193v0 418h193v-418z m418 0h-386v450h-257v-450h-97v193c0 45 36 81 81 81v32c-45 0-81 36-81 80v149l370 234 104-65c-27-28-63-44-104-44v-33c80 0 145-65 145-144h32c0 54 30 102 75 127l118-75v-535z m-209 731c18-39 49-70 87-88-38-17-69-48-87-87-18 39-49 70-87 87 38 18 69 49 87 88z m305-219l0 0-176 112c10 2 21 3 32 3v33c-80 0-145 64-145 144h-32c0-27-8-53-22-75l-123 78-466-295v123l194 124c9-15 15-32 15-51h32c0 53 43 96 96 96v32c-5 0-11 1-16 2l145 92 466-295v-123z m-418-254h242v192h-242v-192z m32 160h177v-128h-177v128z" horiz-adv-x="1000" />

<glyph glyph-name="liquid-soap" unicode="&#xe80c;" d="M855 624v65h-49v161h-258v-32h-290c-62 0-113-51-113-113v-48h81v48c0 24 24 32 40 32h282v-48h-48v-65c-81 0-145-65-145-145v-484c0-80 65-145 145-145h355c80 0 145 65 145 145v484c0 80-64 145-145 145z m-274 194h193v-129h-193v129z m-315-49c-35 0-72-22-72-64v-16h-17v16c0 44 37 81 81 81h290v-17h-282z m266-112h17 258 16v-33h-291v33z m194-549v210h161v-307c0-26-22-48-48-48h-323c-26 0-48 22-48 48v307h177v-210h81z m-49 32v452h17v-452h-17z m291-145c0-62-51-113-113-113h-355c-62 0-113 51-113 113v484c0 62 51 113 113 113h145v-242h-209v-339c0-44 36-80 80-80h323c44 0 80 36 80 80v339h-193v242h129c62 0 113-51 113-113v-484z m-839 113c-71 0-129-58-129-129s58-129 129-129 129 58 129 129-58 129-129 129z m0-226c-53 0-97 44-97 97s44 97 97 97 97-44 97-97-44-97-97-97z m129 387c-35 0-64-29-64-64s29-65 64-65 65 29 65 65-29 64-65 64z m0-96c-18 0-32 14-32 32s14 32 32 32 32-14 32-32-14-32-32-32z m-64 258c44 0 80 36 80 80 0 40-57 110-68 124l-12 14-13-14c-11-14-68-84-68-124 0-44 36-80 81-80z m0 167c23-30 48-69 48-87 0-26-22-48-48-48-27 0-49 22-49 48 0 18 26 57 49 87z" horiz-adv-x="1000" />

<glyph glyph-name="mop" unicode="&#xe80d;" d="M855 108c0-27 22-48 48-48 27 0 49 21 49 48 0 27-22 49-49 49-26 0-48-22-48-49z m48 16c9 0 16-7 16-16 0-9-7-16-16-16-9 0-16 7-16 16 0 9 7 16 16 16z m-97 81c36 0 65 29 65 64s-29 65-65 65-64-29-64-65 29-64 64-64z m0 97c18 0 33-15 33-33s-15-32-33-32-32 15-32 32 15 33 32 33z m130-323h-81c-9 0-16 7-16 16 0 9 7 16 16 16v33c-27 0-49-22-49-49 0-27 22-48 49-48h81c17 0 32-15 32-33 0-17-15-32-32-32h-340c8 10 13 20 15 32h147v33h-147c-7 36-40 64-79 64v129h16v17c0 44-36 80-80 80h-129v549c0 35-29 64-65 64-35 0-64-29-64-64v-549h-129c-45 0-81-36-81-80v-17h16v-209c0-45 36-81 81-81h435 404c35 0 64 29 64 64s-29 65-64 65z m-694 807c0 17 14 32 32 32 18 0 33-15 33-32v-468h-65v468z m0-500h65v-49h-65v49z m-207-113c7 18 25 32 46 32h387c21 0 39-14 45-32h-478z m497-291h-435c-21 0-39 14-46 32h304v33h-307v193h65v-96h32v96h355v-177c0-27 22-49 48-49v33c-8 0-16 7-16 16v16c27 0 49-22 49-48 0-27-22-49-49-49z" horiz-adv-x="1000" />

<glyph glyph-name="plunger" unicode="&#xe80e;" d="M113 44h-32c0-54 43-97 96-97v32c-35 0-64 29-64 65z m32 48c45 0 81 36 81 81s-36 80-81 80-80-36-80-80c0-45 36-81 80-81z m0 129c27 0 49-22 49-48 0-27-22-49-49-49-26 0-48 22-48 49 0 26 22 48 48 48z m791-64c35 0 64 28 64 64s-29 65-64 65-65-29-65-65 29-64 65-64z m0 96c17 0 32-14 32-32s-15-32-32-32c-18 0-33 14-33 32s15 32 33 32z m32-193c0-82-55-150-130-171 0 3 1 6 1 9 0 27-22 49-49 49h-17c-7 122-93 222-208 250v589c0 35-29 64-65 64s-64-29-64-64v-589c-116-28-202-128-209-250h-17c-27 0-49-22-49-49 0-3 1-6 1-9-75 21-130 89-130 171h-32c0-116 94-210 210-210h580c116 0 210 94 210 210h-32z m-500 726c0 17 14 32 32 32 18 0 32-15 32-32v-500h-64v500z m0-533h64v-50c-10 1-21 2-32 2-11 0-22-1-32-2v50z m32-80c105 0 195-68 228-162h-163v-32h172c2-11 3-21 4-32h-482c8 126 113 226 241 226z m290-291h-580c-9 0-16 7-16 16 0 9 7 16 16 16h580c9 0 17-7 17-16 0-9-8-16-17-16z m129 162c0 53-43 96-96 96v-32c35 0 64-29 64-64s-29-65-64-65v-32c53 0 96 43 96 97z" horiz-adv-x="1000" />

<glyph glyph-name="shirt" unicode="&#xe80f;" d="M887 753h-120l-65 97h-404l-65-97h-120c-62 0-113-50-113-113v-790h1000v790c0 63-51 113-113 113z m-572 65h370l54-81-145-232-72 71 167 183-23 21-25-27h-282l-24 27-24-21 167-183-72-71-145 232 54 81z m185-218l-111 121h222l-111-121z m-64-718h-404v758c0 45 36 81 81 81h120l167-268 36 36v-607z m532 0h-500v639l32 32 100-100 167 268h120c45 0 81-36 81-81v-758z m-323 265l113-57 113 57v235h-226v-235z m32 139h113v32h-113v32h162v-32h-16v-32h16v-120l-81-40-81 40v120z m-387 129v32c-53 0-96 43-96 97h-33c0-54-43-97-96-97v-32c53 0 96-44 96-97h33c0 53 43 97 96 97z m-113-35c-11 21-29 39-50 51 21 11 39 29 50 50 12-21 30-39 51-50-21-12-39-30-51-51z m146-175h-33c0-45-36-81-80-81v-32c44 0 80-36 80-81h33c0 45 36 81 80 81v32c-44 0-80 36-80 81z m-16-136c-10 16-23 30-39 39 16 10 29 23 39 39 9-16 22-29 38-39-16-9-29-23-38-39z" horiz-adv-x="1000" />

<glyph glyph-name="soap" unicode="&#xe810;" d="M1000 544c0 169-137 306-306 306h-387c-56 0-109-15-156-42-11 6-24 10-38 10-45 0-81-36-81-81 0-14 4-27 10-38-27-47-42-100-42-155 0-93 41-175 106-232-61-17-106-73-106-139h32c0 61 49 111 110 112 48-30 104-48 165-48h306v-161c0-27-22-49-48-49-27 0-49 22-49 49 0 71-58 129-129 129s-129-58-129-129v-226h32v226c0 53 44 97 97 97s97-44 97-97c0-45 36-81 81-81 44 0 80 36 80 81v161h49c169 0 306 138 306 307z m-887 242c27 0 48-22 48-49 0-27-21-48-48-48-27 0-48 21-48 48s21 49 48 49z m194-517c-152 0-275 123-275 275 0 45 12 89 33 129 13-10 30-16 48-16 44 0 81 36 81 80 0 18-7 35-17 48 40 22 84 33 130 33h387c151 0 274-123 274-274s-123-275-274-275h-387z m-178 275h-32c0-102 104-178 242-178h274v32h-274c-120 0-210 63-210 146z m16-436c-44 0-80-36-80-81s36-80 80-80 81 36 81 80c0 45-36 81-81 81z m0-129c-26 0-48 22-48 48 0 27 22 49 48 49 27 0 49-22 49-49 0-26-22-48-49-48z m758 242c-35 0-64-29-64-64s29-65 64-65 65 29 65 65-29 64-65 64z m0-97c-18 0-32 15-32 33s14 32 32 32c18 0 33-15 33-32s-15-33-33-33z m-97-48c-62 0-112-51-112-113s50-113 112-113c63 0 113 51 113 113s-50 113-113 113z m0-194c-44 0-80 36-80 81 0 44 36 81 80 81s81-37 81-81c0-45-36-81-81-81z m97 662h-32c0-83-90-146-210-146h-16v-32h16c138 0 242 76 242 178z" horiz-adv-x="1000" />

<glyph glyph-name="sponge" unicode="&#xe811;" d="M807 850c-77 0-120-21-161-42-40-20-77-39-146-39-69 0-106 19-146 39-41 21-84 42-160 42-107 0-194-87-194-193v-130-161c0-107 87-193 194-193 17 0 32-15 32-33s-15-32-32-32h-65c-71 0-129-58-129-129s58-129 129-129v32c-53 0-97 44-97 97s44 97 97 97h65c35 0 64 29 64 64 0 14-4 26-11 37 45 7 76 22 107 38 40 20 77 38 146 38 69 0 106-18 146-38 15-8 31-16 48-22v-149c0-36-29-65-65-65s-64 29-64 65-29 64-65 64-64-29-64-64v-178h32v178c0 17 14 32 32 32s32-15 32-32c0-54 44-97 97-97s97 43 97 97v138c22-5 48-9 81-9 106 0 193 86 193 193v161 130c0 106-87 193-193 193z m-775-193c0 88 73 161 162 161 68 0 106-19 146-39 41-20 84-42 160-42s119 22 160 42c40 20 78 39 147 39 88 0 161-73 161-161v-130c0-88-73-161-161-161-69 0-107 19-147 39-41 20-84 42-160 42s-119-22-160-42c-40-20-78-39-146-39-89 0-162 73-162 161v130z m936-291h0c0-89-73-161-161-161-69 0-107 19-147 39-41 20-84 42-160 42s-119-22-160-42c-40-20-78-39-146-39-89 0-162 72-162 161v55c35-53 94-87 162-87 76 0 119 21 160 42 40 20 77 39 146 39 69 0 106-19 146-39 41-21 84-42 161-42 67 0 126 34 161 87v-55z m-823 258c36 0 65 29 65 65s-29 64-65 64-64-29-64-64 29-65 64-65z m0 97c18 0 32-14 32-32s-14-32-32-32c-18 0-32 14-32 32s14 32 32 32z m210-258c53 0 97 43 97 97s-44 97-97 97-97-44-97-97 44-97 97-97z m0 161c35 0 64-29 64-64s-29-65-64-65-65 29-65 65 29 64 65 64z m435 0c45 0 81 36 81 81 0 44-36 81-81 81s-80-37-80-81 36-81 80-81z m0 129c27 0 49-21 49-48 0-27-22-48-49-48s-48 21-48 48c0 27 22 48 48 48z m-129-290c36 0 65 29 65 64s-29 65-65 65c-35 0-64-29-64-65s29-64 64-64z m0 97c18 0 33-15 33-33s-15-32-33-32c-17 0-32 15-32 32s15 33 32 33z m178-49c0-26 21-48 48-48 27 0 49 22 49 48 0 27-22 49-49 49-27 0-48-22-48-49z m48 16c9 0 16-7 16-16s-7-16-16-16c-9 0-16 7-16 16s7 16 16 16z m-742-32c0-26 22-48 49-48 26 0 48 22 48 48 0 27-22 49-48 49s-49-22-49-49z m65 0c0-9-7-16-16-16s-17 7-17 16 8 16 17 16 16-7 16-16z m629-455l-14-19c-8-13-51-76-51-107 0-35 29-64 65-64s64 29 64 64c0 31-42 94-51 107l-13 19z m0-158c-18 0-32 15-32 32 0 11 15 40 32 68 17-28 32-57 32-68 0-17-14-32-32-32z m-532 254l-14-19c-8-12-51-75-51-106 0-35 29-64 65-64s64 29 64 64c0 31-43 94-51 106l-13 19z m0-157c-18 0-33 14-33 32 0 11 15 40 33 68 17-28 32-57 32-68 0-18-15-32-32-32z" horiz-adv-x="1000" />

<glyph glyph-name="spray" unicode="&#xe812;" d="M793 850h-228v-32h-65v-113h65v-32h90c-14-35-50-103-125-113l-14-2v-61l14-2c1 0 7 0 17 0 36 0 120 9 195 86v-58c-47-14-81-57-81-108v-81c0-71-44-95-96-123-53-29-113-61-113-151v-97c0-62 50-113 113-113h306c62 0 113 51 113 113v452c0 56-42 103-97 111v32c15 85 99 114 102 115l11 4v104l-207 69z m-228-113h-33v49h33v-49z m-17-210v3c93 21 130 110 141 143h53v-43c-72-93-160-103-194-103z m404-112v-452c0-45-37-81-81-81h-306c-45 0-81 36-81 81v97c0 71 45 95 96 123 28 14 57 30 79 54h115v32h-94c9 18 14 39 14 65v16h80v32h-80v33c0 44 36 80 80 80h97c44 0 81-36 81-80z m16 285c-28-13-99-52-113-138l0-35h-81v178h-177v113h191l180-60v-58z" horiz-adv-x="1000" />

<glyph glyph-name="sweep" unicode="&#xe813;" d="M798-37v177h17v17c0 44-37 80-81 80h-129v549c0 35-29 64-65 64s-64-29-64-64v-549h-129c-45 0-81-36-81-80v-17h16v-177c0-62 51-113 113-113h258v19c23-12 51-19 81-19h145v32c-44 0-81 36-81 81z m-290 823c0 17 15 32 32 32s33-15 33-32v-468h-65v468z m0-500h65v-49h-65v49z m-161-81h387c21 0 39-14 46-32h-479c7 18 25 32 46 32z m48-323l0 0c-44 0-80 36-80 81v177h80v-177c0-32 13-60 34-81h-34z m339 0l0 0c-62 0-113 36-113 81h-32c0-32 7-61 18-81h-99c-44 0-81 36-81 81v177h259v-64h32v64h48v-177c0-32 13-60 34-81h-66z m-613 145h-32c0-29 7-56 19-80-42 41-68 98-68 161h-32c0-142 116-258 258-258v32c-80 0-145 65-145 145z m32 33c0-27 22-49 49-49 26 0 48 22 48 49 0 26-22 48-48 48-27 0-49-22-49-48z m65 0c0-9-7-16-16-16s-16 7-16 16 7 16 16 16 16-7 16-16z m-65 193c36 0 65 29 65 65s-29 64-65 64-64-29-64-64c0-36 29-65 64-65z m0 97c18 0 33-14 33-32s-15-32-33-32-32 14-32 32 14 32 32 32z" horiz-adv-x="1000" />

<glyph glyph-name="toilet" unicode="&#xe814;" d="M226 608h32c0 53 44 97 97 97v32c-53 0-97 44-97 97h-32c0-53-44-97-97-97v-32c53 0 97-44 97-97z m16 164c12-22 29-39 50-51-21-12-38-29-50-50-12 21-29 38-50 50 21 12 38 29 50 51z m758-470v484h-1c-4 36-34 64-72 64h-96c-38 0-68-28-72-64h-1v-348c-9 5-20 9-32 9h-133c24 29 60 48 101 48v32c-72 0-129 58-129 130h-33c0-72-58-130-129-130v-32c41 0 77-19 101-48h-439c-36 0-65-29-65-65 0-33 26-60 58-64 15-158 139-284 295-304-3-15-14-35-46-35h-97c-39 0-113-24-113-113v-16h903v16c0 89-74 113-113 113-1 0-32 1-32 48v99c41 5 145 34 145 176z m-210 475c0 23 18 41 41 41h96c23 0 41-18 41-41v-40h-178v40z m-316-266c32 16 59 43 74 75 16-32 43-59 75-75-32-15-59-42-75-75-15 33-42 60-74 75z m-409-161c-18 0-33 15-33 32s15 33 33 33h458c6-15 9-32 9-49h33c0 17 3 34 9 49h152c18 0 32-15 32-33s-14-32-32-32h-24-613-24z m25-32h610c-16-154-147-274-305-274s-288 120-305 274z m797-371c3 0 70-1 80-65h-837c9 62 72 65 80 65h97c53 0 73 36 79 65 3 0 6-1 9-1 176 0 321 135 337 307 33 4 58 31 58 64v323h178v-403c0-143-124-145-129-145h-16v-130c0-63 42-80 64-80z" horiz-adv-x="1000" />

<glyph glyph-name="toilet-paper" unicode="&#xe815;" d="M194 673c-37 0-65-49-65-113s28-113 65-113 64 48 64 113-28 113-64 113z m0-194c-14 0-33 31-33 81s19 80 33 80 32-31 32-80-19-81-32-81z m613 371h-630v-1c-99-13-177-137-177-289 0-160 87-291 194-291h161v-129c0-142-72-258-161-258v-32h613c103 0 187 122 193 274h0v436c0 160-87 290-193 290z m-613-548c-89 0-162 115-162 258 0 142 73 258 162 258s161-116 161-258c0-143-72-258-161-258z m88 0c29 22 55 56 73 98v-98h-73z m686 161h-49v-32h49v-291c0-142-73-258-161-258h-196c22 18 41 41 51 69l14 38-30 12-14-39c-18-48-65-80-116-80h-234c62 49 105 146 105 258v291h49v32h-49v97c0 112-43 210-105 258h525c88 0 161-116 161-258v-97z" horiz-adv-x="1000" />

<glyph glyph-name="toothbrush" unicode="&#xe816;" d="M936-21h-500v145h-28c27 24 44 58 44 97 0 71-58 129-129 129v-32c9 0 16-7 16-16s-7-16-16-16h-194c-53 0-97-44-97-97 0-25 10-48 25-65h-9v-147c-27-8-48-33-48-63 0-35 29-64 65-64h871c35 0 64 29 64 64s-29 65-64 65z m-807 274h194c26 0 48 22 48 49 0 1 0 2 0 3 29-17 48-48 48-84 0-53-43-97-96-97h-194c-36 0-64 29-64 65 0 35 28 64 64 64z m210-226v-48h-49v113h113v-113h-32v48h-32z m-145 33v-81h-33v113h97v-113h-32v81h-32z m-65 32v-113h-48v113h48z m807-210h-871c-18 0-33 15-33 32 0 18 15 33 33 33h371 500c17 0 32-15 32-33 0-17-15-32-32-32z m-49 807h32c0 53-43 97-96 97v-33c35 0 64-29 64-64z m-597-242h33c0 31 9 59 26 82 16-35 38-63 57-88 33-42 62-78 62-139 0-113 60-129 97-129 18 0 80 9 80 129 0 77 2 96 16 96s16-19 16-96c0-120 62-129 81-129 36 0 97 16 97 129 0 61 28 97 61 139 40 50 84 106 84 215 0 111-76 194-177 194-75 0-105-27-128-46-14-13-21-18-34-18s-20 5-34 18c-22 19-53 46-127 46-80 0-145-53-168-131-6 16-9 33-9 50h-33c0-80-65-145-145-145v-32c80 0 145-65 145-145z m210 371c62 0 85-21 106-38 15-13 30-27 55-27 26 0 41 14 56 27 20 17 43 38 106 38 84 0 145-68 145-162 0-98-39-147-77-195-34-42-68-86-68-159 0-97-49-97-65-97-30 0-48 36-48 97 0 83 0 129-49 129-48 0-48-46-48-129 0-61-18-97-48-97-16 0-65 0-65 97 0 73-35 117-68 159-22 28-45 57-60 95 26 22 59 36 96 36v32c-45 0-85 21-112 53 9 83 67 141 144 141z m-193-122c17-39 48-70 87-88-39-18-70-49-87-87-18 38-49 69-88 87 39 18 70 49 88 88z m-210-362h32c0 44 36 81 81 81v32c-45 0-81 36-81 80h-32c0-44-36-80-81-80v-32c45 0 81-37 81-81z m16 135c9-15 23-29 39-38-16-10-30-23-39-39-10 16-23 29-39 39 16 9 29 23 39 38z" horiz-adv-x="1000" />

<glyph glyph-name="towel" unicode="&#xe817;" d="M1000-20l0 1c0 5-1 10-1 15l-14 185c9 22 15 46 15 72 0 0 0 0 0 0h0l0 2c0 7-1 13-1 19l-31 447h0c-1 65-58 129-129 129h-662c-70 0-128-57-129-128h0l-31-403c0-5-1-10-1-15l0-1h0c0 0 0-1 0-1h0l-15-256c0-5-1-11-1-16l0-3h0c0 0 0 0 0 0 0-98 80-177 177-177h694c71 0 129 58 129 129 0 0 0 1 0 1z m-935 741h16c0 53 43 97 96 97h662c53 0 97-44 97-97h16l-16-1 24-355c-33 40-82 66-137 66h-678c-35 0-66-14-89-37l25 326-16 1z m-21-499c13-16 30-30 49-38-21-12-39-27-54-46l5 84z m908-33h0l0-1c-24-47-73-80-129-80h-581c-44 0-81-36-81-81s37-80 81-80h581v32h-581c-27 0-48 22-48 48 0 27 21 49 48 49h629c49 0 89-36 96-83l1-14c0-54-44-97-97-97h-694c-80 0-145 65-145 145l1 17c8 72 70 129 144 129h629c36 0 65 29 65 64s-29 65-65 65h-645v-33h645c18 0 33-14 33-32s-15-32-33-32h-661c-53 0-96 43-97 96l2 15c6 46 47 82 95 82h678c73 0 134-55 143-126l2-18c0-24-6-49-16-65z m9-117c-14 13-30 23-48 29 16 9 30 21 43 35l5-64z" horiz-adv-x="1000" />

<glyph glyph-name="vacuum-cleaner" unicode="&#xe818;" d="M887-21l0 0v65h-32v629c0 97-80 177-178 177s-177-80-177-177v-291c0-9-7-16-16-16h-108c-27 8-56 13-86 15v50h-145v-49h-32c-62 0-113-50-113-113v-209c0-45 36-81 81-81h90c19-47 65-81 119-81s101 34 120 81h138c45 0 81 36 81 81 0 84-35 159-94 216 36 14 62 49 62 90v307c0 44 36 80 80 80s81-36 81-80v-629h-32v-65h-113v-129h387v129h-113z m-710 419h81v-16h-81v16z m113-467c-53 0-96 43-96 96s43 97 96 97 97-43 97-97-43-96-97-96z m307 129c0-27-22-49-49-49h-130c1 6 1 11 1 16 0 72-57 130-129 130s-129-58-129-130c0-5 1-10 1-16h-81c-27 0-49 22-49 49v209c0 45 36 81 81 81h32 113c190 0 339-127 339-290z m80 726c-62 0-112-51-112-113v-307c0-34-27-61-60-64-15 12-32 23-49 32h28c27 0 48 22 48 48v291c0 80 65 145 145 145s146-65 146-145v-629h-33v629c0 62-50 113-113 113z m81-775h97v-32h-97v32z m210-129l0 0h-323v65h81 161 81v-65z m-678 210c-35 0-64-29-64-65s29-64 64-64 65 29 65 64-29 65-65 65z m0-97c-17 0-32 15-32 32s15 33 32 33 33-15 33-33-15-32-33-32z" horiz-adv-x="1000" />

<glyph glyph-name="wash" unicode="&#xe819;" d="M1000 415c0 35-29 64-64 64h-9c5 10 9 21 9 32 0 36-29 65-65 65h-25c-18 20-43 32-72 32-18 0-35-5-50-14 1 5 2 9 2 14 0 36-29 65-65 65h-242c-57 0-113-25-152-67-8 1-17 2-25 2-116 0-210-94-210-210 0-5 1-11 1-16-21-33-33-71-33-113v-96c0-111 86-202 195-209 7-38 40-66 79-66 39 0 72 28 79 65h133c31-69 99-113 175-113 85 0 158 54 184 133 9-3 17-4 26-4 53 0 97 43 97 97 0 53-44 97-97 97-21 0-40-7-55-18-10 14-21 26-33 36 4 9 7 19 7 30 0 12-3 23-9 32h106c36 0 65 29 65 65 0 12-4 23-10 33 33 3 58 30 58 64z m-135 129h6c18 0 32-15 32-33s-14-32-32-32h-6c4 10 6 21 6 32s-2 22-6 33z m-91 32c36 0 65-29 65-65s-29-64-65-64-64 29-64 64 29 65 64 65z m-355 64h242c18 0 33-14 33-32s-15-32-33-32h-177v-32h199c-3-11-6-21-6-33s3-22 6-32h-99c-23 30-59 48-100 48-23 0-45-6-65-17-26 42-67 73-114 88 32 27 72 42 114 42z m-177-64c62 0 120-33 152-86-4-3-7-7-11-11h-173c-56 0-106-22-144-57 12 87 86 154 176 154z m32-645c-26 0-48 21-48 48 0 27 22 48 48 48 27 0 49-21 49-48 0-27-22-48-49-48z m79 64c-7 37-40 65-79 65-38 0-71-28-79-64-91 7-163 84-163 177v96c0 98 80 178 178 178h242c17 0 32-15 32-32 0-18-15-33-32-33h-178v-32h387c18 0 33-14 33-32 0-18-15-32-33-32h-290v-33h306 49c18 0 32-14 32-32 0-18-14-32-32-32h-355v-32h306c18 0 33-15 33-33s-15-32-33-32h-306v-32h177c18 0 33-15 33-33s-15-32-33-32h-195z m440 137c-12-16-19-35-19-56h32c0 35 29 64 65 64s65-29 65-64-29-65-65-65c-10 0-20 3-29 8l-23-11c-17-74-82-126-158-126-58 0-111 31-139 81h26c36 0 65 29 65 64 0 12-3 23-9 33h73c36 0 65 29 65 64 0 12-4 24-9 33 10 1 20 5 28 10 12-10 22-20 32-35z m94 154h-161-9c5 9 9 20 9 32 0 12-4 23-9 32h170c18 0 32-14 32-32s-14-32-32-32z m49 96h-275-154c6 10 9 21 9 33 0 35-29 64-64 64h-21c15 10 34 16 53 16 53 0 97-43 97-97h32c0 18-3 34-10 49h99c18-20 44-32 72-32 29 0 54 12 72 32h90c17 0 32-15 32-32 0-18-15-33-32-33z m-178 275c36 0 65 28 65 64s-29 65-65 65-64-29-64-65 29-64 64-64z m0 96c18 0 32-14 32-32s-14-32-32-32c-18 0-32 14-32 32s14 32 32 32z m-516-96c53 0 97 43 97 96s-44 97-97 97c-53 0-97-43-97-97s44-96 97-96z m0 161c36 0 65-29 65-65s-29-64-65-64-65 29-65 64 29 65 65 65z m435-871v-33c45 0 81 37 81 81h-32c0-27-22-48-49-48z" horiz-adv-x="1000" />

<glyph glyph-name="washing-machine" unicode="&#xe81a;" d="M436 398c-98 0-178-79-178-177s80-177 178-177c97 0 177 79 177 177s-80 177-177 177z m-146-177c0 78 62 142 140 145-46-33-75-86-75-145s29-112 75-145c-78 3-140 67-140 145z m194-137c-58 21-97 75-97 137s39 116 97 137c56-20 97-74 97-137s-41-117-97-137z m-290 702c-45 0-81-37-81-81s36-81 81-81c44 0 80 36 80 81s-36 81-80 81z m0-129c-27 0-49 21-49 48 0 27 22 48 49 48s48-21 48-48c0-27-22-48-48-48z m258 129c-45 0-81-37-81-81s36-81 81-81c44 0 80 36 80 81s-36 81-80 81z m0-129c-27 0-49 21-49 48 0 27 22 48 49 48s48-21 48-48c0-27-22-48-48-48z m548-388h-129v113 16 404c0 26-22 48-48 48h-775c-26 0-48-22-48-48v-904c0-26 22-48 48-48h775c26 0 48 22 48 48v49h129v322h0z m-968 533c0 9 8 16 16 16h775c9 0 16-7 16-16v-210h-807v210z m617-436h190v-261c-5 2-11 3-16 3h-156c17 34 27 73 27 113 0 54-17 104-45 145z m12-145c0-124-101-226-225-226-125 0-226 102-226 226s101 226 226 226c124 0 225-101 225-226z m129-145l0 0h33c9 0 16-7 16-16s-7-16-16-16h-17c-5 0-11-2-16-3v35z m49-178h0c0-9-7-16-16-16h-775c-8 0-16 7-16 16v662h807v-162h-217c-47 50-113 81-186 81-143 0-259-116-259-258 0-142 116-258 259-258 88 0 166 45 213 113h109v-81c0-27 22-48 49-48h32v-49z m129 81h0-162c-8 0-16 7-16 16 0 9 8 16 16 16h17c26 0 48 22 48 49v177h97v-258z" horiz-adv-x="1000" />

<glyph glyph-name="water-tap" unicode="&#xe81b;" d="M645 479v32c0 27-21 49-48 49h-16v128c44-4 80-21 112-37 29-14 55-27 81-27 62 0 113 51 113 113s-51 113-113 113c-26 0-52-12-81-27-32-16-69-33-113-37-15 19-38 32-64 32s-49-13-63-32c-45 4-81 21-114 37-29 15-54 27-81 27-62 0-113-51-113-113s51-113 113-113c27 0 52 13 81 27 32 16 68 33 113 37v-128h-16c-27 0-49-22-49-49v-32h-177c-116 0-210-94-210-210v-274h32v-145h33v145h96v-145h33v145h32v194c0 26 22 48 48 48h726v242h-355z m-50 276c45 6 82 24 112 39 26 13 48 24 67 24 45 0 81-36 81-81s-36-80-81-80c-19 0-41 10-67 23-30 15-67 33-112 39 1 6 2 12 2 18 0 6-1 13-2 18z m-157-36c-45-6-82-24-113-39-26-13-48-23-67-23-44 0-81 36-81 80s37 81 81 81c19 0 41-11 67-24 31-15 68-33 113-39-2-5-2-12-2-18 0-6 0-12 2-18z m78 67c27 0 49-22 49-49 0-27-22-48-49-48s-48 21-48 48c0 27 22 49 48 49z m32-123v-103h-64v103c10-4 21-6 32-6s23 2 32 6z m420-394h-694c-44 0-80-36-80-80v-162h-162v242c0 98 80 178 178 178h209v64c0 9 8 16 17 16h161c9 0 16-7 16-16v-64h355v-178z m-581-387v-32c80 0 145 65 145 145h-32c0-62-51-113-113-113z m-113 0v-32c54 0 97 43 97 97h-32c0-36-29-65-65-65z m226 210c0 44-36 81-81 81s-80-37-80-81v-97l30-8c1 1 14 24 50 24 45 0 81 37 81 81z m-129-60v60c0 27 22 48 48 48 27 0 49-21 49-48 0-27-22-48-49-48-20 0-36-6-48-12z" horiz-adv-x="1000" />

<glyph glyph-name="window" unicode="&#xe81c;" d="M0 850v-1000h1000v1000h-1000z m968-968h-936v936h936v-936z m-49 436v97 354h-547c-1 6-1 11-1 17h-32c0-6-1-11-1-17h-257v-354-97-387h838v387z m-32 419v-322h-89c-29 33-52 71-70 108l106 106-23 23-98-98c-33 78-45 151-50 183h224z m-532-25c18-39 49-70 87-88-38-17-69-49-87-87-18 38-49 70-87 87 38 18 69 49 87 88z m-242 25h217c-20-56-73-97-136-97v-32c36 0 69-13 94-35-17-42-46-111-86-158h-89v322z m0-355h81v-32h-81v32z m0-64h86c7-21 26-73 44-138l-130-130v268z m0-355v42l140 139c15-57 29-120 36-181h-176z m371 280c-10-4-21-6-32-6v-32c11 0 22-2 32-6v-236h-163c-8 71-24 144-42 208l136 135-23 23-123-123c-20 68-38 118-43 131v56c39 46 68 109 86 154 17-24 27-53 27-84h32c0 69 48 127 113 141v-361z m0 401c-49 11-88 47-105 93h105v-93z m32-681v217c20-18 32-43 32-72h33c0 53 43 97 96 97v32c-53 0-96 44-96 97h-33c0-29-12-54-32-72v346 32 97h115c4-33 17-118 58-208l-112-111 23-23 103 103c19-36 42-72 71-106v-55c-9-25-77-209-95-374h-163z m-2 258c21 12 39 29 51 51 11-22 29-39 50-51-21-12-39-29-50-50-12 21-30 38-51 50z m373-258h-176c17 147 75 312 91 355h16c-5-27-16-82-27-159l31-5c12 83 24 140 30 164h35v-355z m0 387h-80v32h80v-32z" horiz-adv-x="1000" />

<glyph glyph-name="wipe" unicode="&#xe81d;" d="M855 850h-710c-80 0-145-65-145-145v-516c0-43 19-82 48-108v-231h33v209c19-10 41-15 64-15h226v-130h32v130h33v-162h32v162h17c8-109 98-194 209-194h96c116 0 210 94 210 210v338 307c0 80-65 145-145 145z m113-790c0-98-80-178-178-178h-96c-98 0-178 80-178 178v242c0 17 15 32 32 32 18 0 33-15 33-32v-178h32v387c0 18 14 33 32 33 18 0 32-15 32-33v-290h33v355c0 18 14 32 32 32 18 0 32-14 32-32v-355h32v306c0 18 15 33 33 33s32-15 32-33v-306h32v177c0 18 15 33 33 33 17 0 32-15 32-33v-338z m0 394c-10 6-21 9-32 9-12 0-23-3-33-9v73c0 36-29 65-64 65-12 0-24-4-33-9-4 32-31 57-64 57-36 0-65-29-65-64v-9c-9 5-20 9-32 9-35 0-64-29-64-65v-154c-10 6-21 9-33 9-35 0-64-29-64-64v-226h-248c33 26 54 67 54 113v468c0 62-50 112-113 112-53 0-96-43-96-96v-146h32v146c0 35 29 64 64 64 45 0 81-36 81-80v-468c0-62-51-113-113-113-62 0-113 51-113 113v516c0 62 51 113 113 113h710c62 0 113-51 113-113v-251z" horiz-adv-x="1000" />

<glyph glyph-name="apron" unicode="&#xe81e;" d="M258 44c0-27 22-49 49-49h387c26 0 48 22 48 49v242h-484v-242z m258 209h194v-209c0-9-7-17-16-17h-178v226z m-226 0h194v-226h-177c-9 0-17 8-17 17v209z m544 469l-163 70c-6 3-10 8-10 15v43h-32v-43c0-20 12-37 29-45l19-8v-114h-354v114l19 8c17 8 29 25 29 45v43h-32v-43c0-7-4-12-10-15l-163-70c-101-43-166-142-166-252v-620h32v620c0 97 58 184 147 223l111 47v-116c0-154-91-185-129-192v79h-32v-661h742v661h-32v-79c-38 6-129 37-129 192v116l111-47c89-39 147-126 147-223v-620h32v620c0 110-65 209-166 252z m5-322v-518h-678v518c43 6 154 40 161 208h356c7-168 118-202 161-208z" horiz-adv-x="1000" />

<glyph glyph-name="bin" unicode="&#xe81f;" d="M1000 592h-67l-49 258h-768l-49-258h-67v-113h99l97-629h608l97 629h99v113h0z m-790 226h580v-129c0-18-14-32-32-32h-516c-18 0-32 14-32 32v129z m567-936h-553l-92 597h736l-91-597z m191 629h-936v49h774v32h-706l42 226h35v-129c0-36 29-65 65-65h516c36 0 65 29 65 65v129h35l42-226h-61v-32h129v-49z" horiz-adv-x="1000" />

<glyph glyph-name="brush" unicode="&#xe820;" d="M952 495l0 0h48v129c0 27-22 49-48 49h-694v32c0 9 7 16 16 16h533c35 0 64 29 64 65s-29 64-65 64h-612c-61 0-113-53-113-113v-64h-33c-26 0-48-22-48-49v-129h48v-290h113c18 0 33-15 33-32s-15-33-33-33h-161v-32h161c36 0 65 29 65 65 0 11-4 22-9 32h527c7-28 33-48 62-48h113c27 0 49-22 49-49 0-27-22-48-49-48h-419c-36 0-64-29-64-65s28-64 64-64 65-29 65-65v-16h32v16c0 53-44 97-97 97-18 0-32 14-32 32s14 32 32 32h419c45 0 81 37 81 81 0 45-36 81-81 81h-113c-11 0-22 6-27 16h173v290z m-920 32v97c0 9 8 16 16 16h65v97c0 38 34 81 81 81h613c17 0 32-15 32-32s-15-33-32-33h-533c-26 0-48-21-48-48v-32h-49v-33h775c9 0 16-7 16-16v-97h-16-904-16z m887-290h-80v129h-33v-129h-80v129h-32v-129h-275v65h-32v-65h-80v129h-33v-129h-80v129h-33v-129h-80v258h838v-258z m-822-193c-36 0-65-29-65-65s29-65 65-65 64 29 64 65-29 65-64 65z m0-97c-18 0-32 14-32 32 0 18 14 32 32 32s32-14 32-32-14-32-32-32z m258 210c-27 0-48-22-48-49 0-27 21-48 48-48s48 21 48 48c0 27-21 49-48 49z m0-65c-9 0-16 7-16 16s7 16 16 16 16-7 16-16-7-16-16-16z" horiz-adv-x="1000" />

<glyph glyph-name="bucket" unicode="&#xe821;" d="M951 527h49v130h-65c-9 99-92 177-193 177-86 0-134-53-154-81-3 0-5 0-7 0-46 0-85-27-103-65-21 93-104 162-204 162-110 0-200-85-209-193h-65v-130h49c4-78 36-150 87-204l41-393c1-45 53-80 97-80h452c44 0 96 35 97 80l41 393c51 54 83 126 87 204z m-81-145l16 145h33c-3-53-21-103-49-145z m-289 339c28 0 51-14 66-40l28 16c-13 22-31 39-53 48 20 24 58 57 120 57 83 0 152-64 160-145h-400c7 36 40 64 79 64z m387-97v-64h-581v16c0 27 22 48 49 48h532z m-694 194c93 0 169-71 177-161h-15c-45 0-81-37-81-81v-145c0-27-22-49-49-49-26 0-48 22-48 49v226h-160c8 90 84 161 176 161z m-193-291h34l15-144c-28 42-46 91-49 144z m-49 33v64h194v-64h-194z m758-628l0-1c0-25-36-49-64-49h-452c-28 0-64 24-64 49l-38 359c51-40 114-65 183-68v-33h290v33c69 3 132 28 183 68l-38-358z m-403 289v32h226v-32h-226z m446 116c-49-48-115-79-188-83v32h-290v-32c-73 4-139 35-188 84l-20 189h79v-96c0-45 36-81 81-81s80 36 80 81v96h466l-20-190z m86-245c-44 0-80-36-80-81s36-80 80-80 81 36 81 80-36 81-81 81z m0-129c-26 0-48 22-48 48 0 27 22 49 48 49 27 0 49-22 49-49 0-26-22-48-49-48z m-322 129c0-27 22-48 48-48 27 0 49 21 49 48 0 27-22 48-49 48s-48-21-48-48z m64 0c0-9-7-16-16-16s-16 7-16 16 7 16 16 16 16-7 16-16z" horiz-adv-x="1000" />

<glyph glyph-name="cleaning" unicode="&#xe822;" d="M87 174c54 0 90 35 91 37l12 11-12 11c-1 2-37 37-91 37-38 0-72-33-76-37l-11-11 11-11c4-4 38-37 76-37z m0 64c23 0 41-9 53-16-12-8-30-16-53-16-13 0-28 8-39 16 11 8 26 16 39 16z m112 112c35 0 64 29 64 64s-29 64-64 64c-35 0-64-29-64-64s29-64 64-64z m0 96c18 0 32-14 32-32 0-18-14-32-32-32-18 0-32 14-32 32 0 18 14 32 32 32z m136 56c27 0 48 22 48 48s-21 48-48 48-48-21-48-48 22-48 48-48z m0 64c9 0 16-7 16-16 0-9-7-16-16-16s-16 7-16 16c0 9 7 16 16 16z m-296-649c0 18 14 32 32 32h80c26 0 48 22 48 48 0 27-22 49-48 49v-32c9 0 16-8 16-17s-7-16-16-16h-80c-36 0-64-28-64-64s28-64 64-64h320v32h-320c-18 0-32 15-32 32z m931 209h14v16c0 20-12 63-59 79l-149 45v517c0 35-29 64-64 64s-64-29-64-64v-518l-150-44c-46-16-59-59-59-79v-16h14l-30-255 32-4 31 259h16l-15-256 32-2 16 258h16v-257h33v257h16v-257h32v257h16v-257h32v257h16v-257h32v257h16v-257h32v257h16v-257h32v257h16v-257h32v257h17l15-258 32 2-15 256h17l30-259 32 4-30 255z m-290 657c0 17 14 32 32 32 17 0 32-15 32-32v-417h-64v417z m0-449h64v-65l-64 1v64z m-205-176c4 11 13 26 33 32l158 48h91l158-47c21-7 30-22 34-33h-474z m-68 96l0 0c-3 0-89-1-125-55-27-41-35-117-35-120l-2-17h18c3 0 71 0 108 36 44 45 52 135 52 139l2 17h-18z m-59-133c-17-17-47-24-67-26 4 26 13 64 27 86 19 27 58 36 81 39-5-29-17-75-41-99z" horiz-adv-x="1000" />

<glyph glyph-name="detergent" unicode="&#xe823;" d="M677 812l-11 6-32-32-113 64-32-33-64 33-81-81 32-64-32-32 59-118-88-88v-119h16c40 0 65-38 65-64v-194c-54-5-99-37-124-81-34 112-139 194-262 194v-32c133 0 241-108 241-241h32c0 66 49 120 113 128v-128c0-44 36-80 80-80h434c44 0 80 36 80 80v466c0 237-92 289-313 416z m-246-2l34-17-65-64-17 34 48 47z m-48-144l144 144 83-48-183-183-44 87z m527-784h-434c-27 0-48 22-48 48v354c0 41-33 86-81 95v75l94 93 1 1 0 0 229 230c214-122 287-167 287-382v-466h0c0-26-22-48-48-48z m-306 530c-44 0-80-36-80-80v-289c0-45 36-81 80-81h161c44 0 80 36 80 81v128c0 133-108 241-241 241z m209-369c0-27-21-48-48-48h-161c-26 0-48 21-48 48v289c0 27 22 48 48 48 116 0 209-93 209-209v-128z m-658 209c0-36 28-65 64-65s64 29 64 65-29 64-64 64-64-29-64-64z m96 0c0-18-14-32-32-32-18 0-32 14-32 32 0 17 14 32 32 32 18 0 32-15 32-32z m-177 417h32c0 36 29 65 65 65v32c-36 0-65 29-65 64h-32c0-35-28-64-64-64v-32c35 0 64-29 64-65z m16 108c8-11 17-20 27-27-10-7-19-17-27-27-7 10-16 20-27 27 11 7 20 16 27 27z m-16-188v-32c62 0 113-51 113-113h32c0 62 50 113 112 113v32c-62 0-112 50-112 112h-32c0-62-51-112-113-112z m129 46c14-26 35-48 62-62-27-14-48-36-62-62-14 26-36 48-62 62 26 14 48 36 62 62z" horiz-adv-x="1000" />

<glyph glyph-name="dish" unicode="&#xe824;" d="M952 237c0 9 4 16 14 28 14 20 34 48 34 101 0 78-57 135-113 144v98h-32v65h-97v-35c-70 130-206 212-355 212-222 0-403-181-403-403s181-403 403-403c80 0 159 23 226 66v-179c0-45 36-81 81-81h193c45 0 81 36 81 81v193c0 42-13 66-22 84-6 12-10 20-10 29z m-97 339v-65h-97v65h97z m-65 64h33v-32h-33v32z m-32-31v-1h-2l2 1z m-107-401c-7-14-16-31-20-58-66-48-146-74-228-74-204 0-371 166-371 371 0 204 167 371 371 371 142 0 273-82 334-210h-11v-98c-13-2-25-7-37-13-24 137-143 240-286 240-160 0-290-130-290-290s130-290 290-290c99 0 187 42 241 114 1-2 2-4 3-6 10-12 14-19 14-28 0-9-4-17-10-29z m-25 93c-47-71-128-112-223-112-142 0-258 116-258 258 0 142 116 258 258 258 132 0 242-100 256-230-27-25-46-63-46-109 0-28 5-49 13-65z m277-419h-193c-27 0-49 22-49 49v193c0 34 10 53 19 69 7 13 14 27 14 44 0 20-11 34-21 48-13 18-28 38-28 81 0 70 57 113 97 113h129c40 0 97-43 97-113 0-43-15-63-28-81-10-14-21-28-21-48 0-17 7-31 14-44 9-16 19-35 19-69v-193h0c0-27-22-49-49-49z m-758 226h-32c0-62-51-113-113-113v-32c62 0 113-51 113-113h32c0 62 51 113 113 113v32c-62 0-113 51-113 113z m-16-192c-14 27-36 49-62 63 26 14 48 36 62 63 14-27 36-49 63-63-27-14-49-36-63-63z m194 595h-33c0-44-36-80-80-80v-33c44 0 80-36 80-80h33c0 44 36 80 80 80v33c-44 0-80 36-80 80z m-16-135c-10 16-23 29-39 39 16 9 29 22 39 38 9-16 22-29 38-38-16-10-29-23-38-39z" horiz-adv-x="1000" />
</font>
</defs>
</svg>
